请选择 进入手机版 | 继续访问电脑版

CHDMV音乐分享社区

 找回密码
 立即注册

QQ登录

只需一步,快速开始

搜索
热搜: 活动 交友 discuz
查看: 329|回复: 22

[1080P] 邓紫棋《回忆的沙漏》双音轨KTV

[复制链接]
  • TA的每日心情
    擦汗
    前天 18:51
  • 27

    帖子

    61

    积分

    48

    金钱

    Cm初级会员

    Rank: 3Rank: 3

    积分
    61
    发表于 2018-12-4 21:50:11 | 显示全部楼层 |阅读模式
        伴奏是没有歌词旋律的,要唱好可不简单。
    游客,本付费内容需要支付 2个金钱 才能浏览   

    免扣积分开通VIP会员

    购买



    文件信息
    Complete name             : 回忆的沙漏-邓紫棋.mkv
    Format                         : Matroska
    Format version              : Version 4
    File size                        : 101 MiB
    Duration                       : 3 min 52 s
    Overall bit rate              : 3 639 kb/s
    Encoded date                : UTC 2018-12-04 13:03:26
    Writing application         : mkvmerge v25.0.0 ('Prog Noir') 64-bit
    Writing library               : libebml v1.3.6 + libmatroska v1.4.9
    Video
    ID                                : 1
    Format                         : AVC
    Format/Info                  : Advanced Video Codec
    Format profile               : Main@L4.1
    Format settings             : CABAC / 4 Ref Frames
    Format settings, CABAC         : Yes
    Format settings, ReFrames    : 4 frames
    Codec ID                      : V_MPEG4/ISO/AVC
    Duration                       : 3 min 52 s
    Bit rate                         : 3 001 kb/s
    Width                           : 1 920 pixels
    Height                          : 1 080 pixels
    Display aspect ratio        : 16:9
    Frame rate mode           : Constant
    Frame rate                    : 23.976 (24000/1001) FPS
    Color space                   : YUV
    Chroma subsampling      : 4:2:0
    Bit depth                       : 8 bits
    Scan type                      : Progressive
    Bits/(Pixel*Frame)          : 0.060
    Stream size                    : 83.2 MiB (82%)
    Language                       : English
    Default                          : Yes
    Forced                           : No
    Color range                    : Limited
    Color primaries               : BT.709
    Transfer characteristics    : BT.709
    Matrix coefficients           : BT.709
    Audio #1
    ID                                 : 2
    Format                          : AAC LC
    Format/Info                   : Advanced Audio Codec Low Complexity
    Codec ID                       : A_AAC-2
    Duration                        : 3 min 52 s
    Bit rate                          : 317 kb/s
    Channel(s)                     : 2 channels
    Channel layout               : L R
    Sampling rate                 : 48.0 kHz
    Frame rate                     : 46.875 FPS (1024 SPF)
    Compression mode         : Lossy
    Stream size                    : 8.79 MiB (9%)
    Title                              : 原唱
    Language                      : Chinese
    Default                          : Yes
    Forced                           : No
    Audio #2
    ID                                : 3
    Format                         : AAC LC
    Format/Info                  : Advanced Audio Codec Low Complexity
    Codec ID                      : A_AAC-2
    Duration                       : 3 min 52 s
    Bit rate                         : 317 kb/s
    Channel(s)                    : 2 channels
    Channel layout              : L R
    Sampling rate               : 48.0 kHz
    Frame rate                   : 46.875 FPS (1024 SPF)
    Compression mode       : Lossy
    Stream size                  : 8.79 MiB (9%)
    Title                            : 伴奏
    Language                    : Chinese
    Default                        : No
    Forced                         : No

    A.jpg
    O.jpg
    回复

    使用道具 举报

    该用户从未签到

    2

    帖子

    2

    积分

    1

    金钱

    Cm新人

    Rank: 1

    积分
    2
    发表于 7 天前 | 显示全部楼层
    邓紫棋的没看过~
    回复 支持 反对

    使用道具 举报

  • TA的每日心情
    郁闷
    5 小时前
  • 67

    帖子

    26

    积分

    5

    金钱

    Cm初级会员

    Rank: 3Rank: 3

    积分
    26
    发表于 6 天前 | 显示全部楼层
    没金币来赚点金币!
    回复 支持 反对

    使用道具 举报

  • TA的每日心情
    开心
    6 小时前
  • 170

    帖子

    187

    积分

    6

    金钱

    Cm中级会员

    Rank: 5Rank: 5

    积分
    187
    发表于 6 天前 | 显示全部楼层

    支持一下,感谢分享。
    回复 支持 反对

    使用道具 举报

    该用户从未签到

    7

    帖子

    7

    积分

    5

    金钱

    Cm初级会员

    Rank: 3Rank: 3

    积分
    7
    发表于 6 天前 | 显示全部楼层
    支持一下,感谢分享
    回复 支持 反对

    使用道具 举报

  • TA的每日心情
    大哭
    6 天前
  • 19

    帖子

    26

    积分

    20

    金钱

    Cm初级会员

    Rank: 3Rank: 3

    积分
    26
    发表于 6 天前 | 显示全部楼层
    没金币,来赚钱
    回复 支持 反对

    使用道具 举报

  • TA的每日心情
    萌哒
    6 小时前
  • 254

    帖子

    253

    积分

    157

    金钱

    Cm中级会员

    Rank: 5Rank: 5

    积分
    253
    发表于 5 天前 | 显示全部楼层

    支持一下,感谢分享
    回复 支持 反对

    使用道具 举报

    该用户从未签到

    7

    帖子

    2

    积分

    0

    金钱

    Cm新人

    Rank: 1

    积分
    2
    发表于 5 天前 | 显示全部楼层
    支持一下,感谢分享
    回复 支持 反对

    使用道具 举报

  • TA的每日心情
    开心
    5 天前
  • 19

    帖子

    11

    积分

    5

    金钱

    Cm初级会员

    Rank: 3Rank: 3

    积分
    11
    发表于 5 天前 | 显示全部楼层
    66666666666666666666
    回复 支持 反对

    使用道具 举报

  • TA的每日心情
    开心
    前天 19:34
  • 42

    帖子

    65

    积分

    52

    金钱

    Cm初级会员

    Rank: 3Rank: 3

    积分
    65
    发表于 5 天前 | 显示全部楼层
    支持一下,感谢分享
    回复 支持 反对

    使用道具 举报

  • TA的每日心情
    开心
    昨天 08:59
  • 15

    帖子

    10

    积分

    5

    金钱

    Cm初级会员

    Rank: 3Rank: 3

    积分
    10
    发表于 5 天前 来自手机 | 显示全部楼层
    谢谢楼主的分享
    回复 支持 反对

    使用道具 举报

  • TA的每日心情
    开心
    2018-10-11 20:57
  • 69

    帖子

    24

    积分

    0

    金钱

    Cm初级会员

    Rank: 3Rank: 3

    积分
    24
    发表于 4 天前 | 显示全部楼层
    邓紫棋的歌曲不错,支持分享。
    回复 支持 反对

    使用道具 举报

  • TA的每日心情
    开心
    前天 19:34
  • 42

    帖子

    65

    积分

    52

    金钱

    Cm初级会员

    Rank: 3Rank: 3

    积分
    65
    发表于 4 天前 | 显示全部楼层
    没金币,来赚钱
    回复 支持 反对

    使用道具 举报

  • TA的每日心情
    萌哒
    昨天 19:32
  • 87

    帖子

    47

    积分

    13

    金钱

    Cm初级会员

    Rank: 3Rank: 3

    积分
    47
    发表于 4 天前 | 显示全部楼层
    支持一下,感谢分享
    回复 支持 反对

    使用道具 举报

  • TA的每日心情
    开心
    4 天前
  • 13

    帖子

    15

    积分

    11

    金钱

    Cm初级会员

    Rank: 3Rank: 3

    积分
    15
    发表于 4 天前 | 显示全部楼层
    新人不知道怎么下载
    回复 支持 反对

    使用道具 举报

  • TA的每日心情
    郁闷
    5 小时前
  • 67

    帖子

    26

    积分

    5

    金钱

    Cm初级会员

    Rank: 3Rank: 3

    积分
    26
    发表于 3 天前 | 显示全部楼层
    来赚金币了!太不过用了
    回复 支持 反对

    使用道具 举报

  • TA的每日心情
    无聊
    3 天前
  • 27

    帖子

    16

    积分

    8

    金钱

    Cm初级会员

    Rank: 3Rank: 3

    积分
    16
    发表于 3 天前 | 显示全部楼层
    来赚金币了!太不过用了
    回复 支持 反对

    使用道具 举报

  • TA的每日心情
    无聊
    3 天前
  • 27

    帖子

    16

    积分

    8

    金钱

    Cm初级会员

    Rank: 3Rank: 3

    积分
    16
    发表于 3 天前 | 显示全部楼层
    新人不知道怎么下载
    回复 支持 反对

    使用道具 举报

  • TA的每日心情
    萌哒
    5 小时前
  • 16

    帖子

    9

    积分

    4

    金钱

    Cm初级会员

    Rank: 3Rank: 3

    积分
    9
    发表于 前天 11:18 | 显示全部楼层
    最近很迷这家伙,谢谢发布
    回复 支持 反对

    使用道具 举报

    已抛锚 成长值: 1135

  • TA的每日心情
    开心
    3 小时前
  • 535

    帖子

    623

    积分

    433

    金钱

    Cm高级会员

    Rank: 7Rank: 7Rank: 7

    积分
    623
    发表于 昨天 15:20 | 显示全部楼层
    谢谢楼主分享!
    回复 支持 反对

    使用道具 举报

    您需要登录后才可以回帖 登录 | 立即注册

    Archiver|手机版| CHDMV音乐分享社区 ( 黔ICP备16007515号-4 )

    GMT+8, 2018-12-13 15:34 , Processed in 0.149063 second(s), 37 queries .

    Powered by Discuz! X3.2

    © 2001-2012 Comsenz Inc.

    返回顶部