请选择 进入手机版 | 继续访问电脑版

chdmv音乐分享社区

 找回密码
 立即注册

QQ登录

只需一步,快速开始

搜索
热搜: 活动 交友 discuz
查看: 3574|回复: 57

[1080P] Sunmi(宣美) - NOIR [MV母盘]

[复制链接]
  • TA的每日心情
    无聊
    5 天前
  • 11

    帖子

    397

    积分

    378

    金钱

    高清发布组

    Rank: 7Rank: 7Rank: 7

    积分
    397
    发表于 2019-8-25 23:49:08 | 显示全部楼层 |阅读模式
    本帖最后由 tk673 于 2019-9-15 09:21 编辑

    Sunmi - NOIR 2019 1080p Master ProRes LPCM.mov_20190825_212119.665.jpg
    南韩腿精 李宣美
    1. General
    2. Complete name                  : E:\Sunmi - NOIR 2019 1080p Master ProRes LPCM.mov
    3. Format                         : MPEG-4
    4. Format profile                 : QuickTime
    5. Codec ID                       : qt   2005.03 (qt  )
    6. File size                      : 4.90 GiB
    7. Duration                       : 4 min 2 s
    8. Overall bit rate mode          : Variable
    9. Overall bit rate               : 174 Mb/s
    10. Encoded date                   : UTC 2019-03-04 06:34:02
    11. Tagged date                    : UTC 2019-03-04 06:36:07
    12. Writing library                : Apple QuickTime
    13. TIM                            : 00:00:00:00
    14. TSC                            : 24000
    15. TSZ                            : 1001

    16. Video
    17. ID                             : 1
    18. Format                         : ProRes
    19. Format version                 : Version 0
    20. Format profile                 : 422 HQ
    21. Codec ID                       : apch
    22. Duration                       : 4 min 2 s
    23. Bit rate mode                  : Variable
    24. Bit rate                       : 172 Mb/s
    25. Width                          : 1 920 pixels
    26. Height                         : 1 080 pixels
    27. Display aspect ratio           : 16:9
    28. Frame rate mode                : Constant
    29. Frame rate                     : 23.976 (24000/1001) FPS
    30. Color space                    : YUV
    31. Chroma subsampling             : 4:2:2
    32. Scan type                      : Progressive
    33. Bits/(Pixel*Frame)             : 3.461
    34. Stream size                    : 4.86 GiB (99%)
    35. Writing library                : Apple
    36. Language                       : English
    37. Encoded date                   : UTC 2019-03-04 06:34:02
    38. Tagged date                    : UTC 2019-03-04 06:34:02
    39. Color primaries                : BT.709
    40. Transfer characteristics       : BT.709
    41. Matrix coefficients            : BT.709

    42. Audio
    43. ID                             : 2
    44. Format                         : PCM
    45. Format settings                : Little / Signed
    46. Codec ID                       : sowt
    47. Duration                       : 4 min 2 s
    48. Bit rate mode                  : Constant
    49. Bit rate                       : 1 411.2 kb/s
    50. Channel(s)                     : 2 channels
    51. Channel positions              : Front: L R
    52. Sampling rate                  : 44.1 kHz
    53. Bit depth                      : 16 bits
    54. Stream size                    : 40.8 MiB (1%)
    55. Language                       : English
    56. Encoded date                   : UTC 2019-03-04 06:34:02
    57. Tagged date                    : UTC 2019-03-04 06:34:02

    58. Other
    59. ID                             : 3
    60. Type                           : Time code
    61. Format                         : QuickTime TC
    62. Duration                       : 4 min 2 s
    63. Time code of first frame       : 00:00:00:00
    64. Time code, striped             : Yes
    65. Language                       : English
    66. Encoded date                   : UTC 2019-03-04 06:34:02
    67. Tagged date                    : UTC 2019-03-04 06:34:02
    复制代码
    链接:https://pan.baidu.com/s/1EJVDnD1t-vvRmZmALNjgwA


    游客,本付费内容需要支付 5个金钱 才能浏览   

    免扣积分开通VIP会员

    购买

    回复

    使用道具 举报

  • TA的每日心情
    无聊
    10 小时前
  • 361

    帖子

    319

    积分

    150

    金钱

    Cm中级会员

    Rank: 5Rank: 5

    积分
    319
    发表于 2019-8-27 00:12:30 | 显示全部楼层
    感谢楼主分享宣美mv母带
    回复 支持 反对

    使用道具 举报

  • TA的每日心情
    郁闷
    1 小时前
  • 145

    帖子

    66

    积分

    7

    金钱

    Cm初级会员

    Rank: 3Rank: 3

    积分
    66
    发表于 2019-8-27 07:56:13 | 显示全部楼层
    非常喜欢,谢谢分享。
    回复 支持 反对

    使用道具 举报

     成长值: 220

  • TA的每日心情
    开心
    2019-9-27 08:58
  • 482

    帖子

    160

    积分

    3

    金钱

    VIP会员

    Rank: 5Rank: 5

    积分
    160
    发表于 2019-8-27 09:18:37 | 显示全部楼层
    感谢楼主分享宣美mv母带
    回复 支持 反对

    使用道具 举报

     成长值: 220

  • TA的每日心情
    开心
    2019-9-27 08:58
  • 482

    帖子

    160

    积分

    3

    金钱

    VIP会员

    Rank: 5Rank: 5

    积分
    160
    发表于 2019-8-27 09:19:00 | 显示全部楼层
    感谢楼主分享宣美mv母带
    回复 支持 反对

    使用道具 举报

     成长值: 220

  • TA的每日心情
    开心
    2019-9-27 08:58
  • 482

    帖子

    160

    积分

    3

    金钱

    VIP会员

    Rank: 5Rank: 5

    积分
    160
    发表于 2019-8-27 09:20:32 | 显示全部楼层
    感谢楼主分享宣美mv母带
    回复 支持 反对

    使用道具 举报

     成长值: 220

  • TA的每日心情
    开心
    2019-9-27 08:58
  • 482

    帖子

    160

    积分

    3

    金钱

    VIP会员

    Rank: 5Rank: 5

    积分
    160
    发表于 2019-8-27 09:22:52 | 显示全部楼层
    感谢楼主分享宣美mv母带:(:(
    回复 支持 反对

    使用道具 举报

  • TA的每日心情
    擦汗
    11 小时前
  • 1368

    帖子

    1599

    积分

    1169

    金钱

    Cm蓝冠会员

    Rank: 9Rank: 9Rank: 9

    积分
    1599
    发表于 2019-8-27 09:35:51 | 显示全部楼层
    谢谢分享,很唯美的MV,女主也很漂亮。
    回复 支持 反对

    使用道具 举报

    该用户从未签到

    3

    帖子

    1

    积分

    0

    金钱

    Cm新人

    Rank: 1

    积分
    1
    发表于 2019-8-27 10:16:13 | 显示全部楼层
    哦吼,这是什么
    回复 支持 反对

    使用道具 举报

    该用户从未签到

    3

    帖子

    1

    积分

    0

    金钱

    Cm新人

    Rank: 1

    积分
    1
    发表于 2019-8-27 15:49:13 | 显示全部楼层
    谢谢楼主的好资源
    回复 支持 反对

    使用道具 举报

  • TA的每日心情
    慵懒
    2019-4-4 15:56
  • 58

    帖子

    39

    积分

    20

    金钱

    Cm初级会员

    Rank: 3Rank: 3

    积分
    39
    发表于 2019-8-27 17:26:10 | 显示全部楼层

    感谢楼主分享宣美mv.很好
    回复 支持 反对

    使用道具 举报

  • TA的每日心情
    无聊
    2018-2-11 14:28
  • 27

    帖子

    18

    积分

    10

    金钱

    Cm初级会员

    Rank: 3Rank: 3

    积分
    18
    发表于 2019-8-29 14:38:09 | 显示全部楼层
    非常喜欢,谢谢分享。
    回复 支持 反对

    使用道具 举报

    该用户从未签到

    26

    帖子

    9

    积分

    1

    金钱

    Cm初级会员

    Rank: 3Rank: 3

    积分
    9
    发表于 2019-8-30 17:03:46 | 显示全部楼层
    谢谢分享  谢谢分享
    回复 支持 反对

    使用道具 举报

  • TA的每日心情
    慵懒
    昨天 11:32
  • 499

    帖子

    365

    积分

    181

    金钱

    Cm中级会员

    Rank: 5Rank: 5

    积分
    365
    发表于 2019-8-30 19:29:42 | 显示全部楼层
    好看吗这个
    回复 支持 反对

    使用道具 举报

  • TA的每日心情
    开心
    2019-10-7 19:18
  • 179

    帖子

    57

    积分

    0

    金钱

    Cm初级会员

    Rank: 3Rank: 3

    积分
    57
    发表于 2019-8-30 23:21:55 | 显示全部楼层
    宣美是韩国最性感得女神,喜欢她。音乐也好听,加油。
    回复 支持 反对

    使用道具 举报

  • TA的每日心情
    开心
    2019-10-7 19:18
  • 179

    帖子

    57

    积分

    0

    金钱

    Cm初级会员

    Rank: 3Rank: 3

    积分
    57
    发表于 2019-8-30 23:22:25 | 显示全部楼层
    宣美加油哦,会一直支持你。感谢楼主分享。
    回复 支持 反对

    使用道具 举报

  • TA的每日心情
    开心
    2018-11-4 17:58
  • 19

    帖子

    17

    积分

    11

    金钱

    Cm初级会员

    Rank: 3Rank: 3

    积分
    17
    发表于 2019-9-1 18:50:36 | 显示全部楼层
    谢谢分享!!!
    回复

    使用道具 举报

  • TA的每日心情
    郁闷
    2019-9-12 19:51
  • 222

    帖子

    84

    积分

    17

    金钱

    Cm初级会员

    Rank: 3Rank: 3

    积分
    84
    发表于 2019-9-1 21:55:50 | 显示全部楼层

    谢谢分享,很唯美的MV,女主也很漂亮。
    回复 支持 反对

    使用道具 举报

  • TA的每日心情
    开心
    6 天前
  • 143

    帖子

    94

    积分

    47

    金钱

    Cm初级会员

    Rank: 3Rank: 3

    积分
    94
    发表于 2019-9-2 10:26:42 | 显示全部楼层

    非常喜欢,谢谢分享。
    回复 支持 反对

    使用道具 举报

  • TA的每日心情
    开心
    2019-10-7 19:18
  • 179

    帖子

    57

    积分

    0

    金钱

    Cm初级会员

    Rank: 3Rank: 3

    积分
    57
    发表于 2019-9-2 20:41:01 | 显示全部楼层
    宣美好漂亮哦,不愧是南韩第一美腿。666
    回复 支持 反对

    使用道具 举报

    您需要登录后才可以回帖 登录 | 立即注册

    手机版|Archiver| chdmv音乐分享社区 ( 黔ICP备16007515号-4 )

    GMT+8, 2019-10-16 11:16 , Processed in 0.102116 second(s), 40 queries .

    Powered by Discuz! X3.4

    © 2001-2012 Comsenz Inc.

    返回顶部